Blade Runner 2049 (2017) - WEBRIP - 1.46GB - AC-3

seeders: 497
leechers: 33
updated:
Added by makintos13 in TV
Torrent verified.

Blade Runner 2049 (2017) - WEBRIP - 1.46GB - AC-3 (Size: 1.46 GiB )
Blade Runner 2049 (2017) - WEBRIP - 1.46GB - AC-3.avi1.46 GiB

Description

screens:
 
http://imgmak.com/med
 
http://imgmak.com/mes
 
http://imgmak.com/me4
 
http://imgmak.com/me8

Format                                   : AVI
Format/Info                              : Audio Video Interleave
File size                                : 1.46 GiB
Duration                                 : 2 h 37 min
Overall bit rate                         : 1 324 kb/s
Writing application                      : VirtualDubMod 1.5.10.2 (build 2540/release)
Writing library                          : VirtualDubMod build 2540/release

Video
ID                                       : 0
Format                                   : MPEG-4 Visual
Format profile                           : Advanced [email protected]
Format settings                          : BVOP2
Format settings, BVOP                    : 2
Format settings, QPel                    : No
Format settings, GMC                     : No warppoints
Format settings, Matrix                  : Default (MPEG)
Codec ID                                 : XVID
Codec ID/Hint                            : XviD
Duration                                 : 2 h 37 min
Bit rate                                 : 1 187 kb/s

Width                                    : 720 pixels
Height                                   : 304 pixels
Display aspect ratio                     : 2.35:1
Frame rate                               : 23.976 (24000/1001) FPS
Color space                              : YUV
Chroma subsampling                       : 4:2:0
Bit depth                                : 8 bits
Scan type                                : Progressive
Compression mode                         : Lossy
Bits/(Pixel*Frame)                       : 0.226
Stream size                              : 1.31 GiB (90%)
Writing library                          : XviD 1.2.1 (UTC 2008-12-04)

Audio
ID                                       : 1
Format                                   : AC-3
Format/Info                              : Audio Coding 3
Format settings, Endianness              : Big
Codec ID                                 : 2000
Duration                                 : 2 h 37 min
Bit rate mode                            : Constant
Bit rate                                 : 128 kb/s
lang                                     : rus
Channel(s)                               : 2 channels
Channel positions                        : Front: L R
Sampling rate                            : 48.0 kHz
Frame rate                               : 31.250 FPS (1536 SPF)
Bit depth                                : 16 bits
Compression mode                         : Lossy
Stream size                              : 144 MiB (10%)
Alignment                                : Split accross interleaves
Interleave, duration                     : 42  ms (1.00 video frame)
Interleave, preload duration             : 500  ms

Sharing Widget


Download torrent
1.46 GiB 
seeders:497
leechers:33
Blade Runner 2049 (2017) - WEBRIP - 1.46GB - AC-3



To share this torrent use the code below and insert it into comments, status messages, forum posts or your signature.

Torrent: Blade Runner 2049 (2017) - WEBRIP - 1.46GB - AC-3

Trackers

tracker name
udp://tracker.coppersurfer.tk:6969/announce
udp://9.rarbg.me:2710/announce
udp://p4p.arenabg.ch:1337/announce
udp://tracker.leechers-paradise.org:6969/announce
udp://eddie4.nl:6969/announce
udp://thetracker.org:80/announce
udp://tracker.coppersurfer.tk:6969
udp://explodie.org:6969/announce
udp://tracker.aletorrenty.pl:2710/announce
udp://9.rarbg.to:2710/announce
udp://torrent.gresille.org:80/announce
udp://tracker.opentrackr.org:1337/announce
udp://tracker.piratepublic.com:1337/announce
udp://tracker.sktorrent.net:6969/announce
udp://zer0day.ch:1337/announce
??Torrent compatible trackers list

Locations

name
KickassTorrents
Torrent hash: 5E2550B8D64DF8170964C704257055256BCC7141

All Comments

audio
0/10
video
0/10
please, leave only comments related to that torrent
Sign In

kantavec
its in fucking russian along with shitty ads of some online casino
kantavec
its in russian
jay131272
It is written in the small print, however it would have been nice to see it labelled as Russian on the main label.

lang : rus
teddyXXX
relax mother fuckers! it does says it's in russian. learn how to fucking read.
tallcabsfall
I like how the one guy told the other guy to learn to read even though he misread the guys comment.
loganxrt
Another junk copy.
Kotep
WTF.. the bits pixel frame is 0.226
I want it to be 0.226000001

Good lord..its free enjoy you dorks.

brap
pra3t0r
Audio is Russian language. Audio quality very noisy. Sounds like it was recorded in a train station. Picture is VHS quality.
Sandfr0g
Surprisingly good video quality but not only is everything in Russian, it sounds like it's being played through a tin can.
mauriciognr
Video is OK. but audio is garbage, russian gargabe.
Report a bug Open chat